วันจันทร์ที่ 8 กรกฎาคม พ.ศ. 2556

โหลดหนัง Olympus Has Fallen (2013) ฝ่าวิกฤติ วินาศกรรมทำเนียบขาว

โหลดหนัง โหลดหนังฟรี Olympus Has Fallen (2013) ฝ่าวิกฤติ วินาศกรรมทำเนียบขาว
เรื่องย่อ.....กลุ่มหัวรุนแรงที่ผ่านการฝึกฝนมาอย่างดีและอาวุธครบมือกลุ่มเล็กๆ ได้ทำการอุกอาจเข้ายึดทำเนียบขาวกลางวันแสกๆ
พวกเขาแทรกซึมเข้าไปในทำเนียบและจับตัวประธานาธิบดีเบนจามิน แอชเชอร์ (แอรอน เอ็คฮาร์ท)
และเจ้าหน้าที่ของเขาเป็นตัวประกันภายในหลุมหลบภัยใต้ดินของประธานาธิบดี ที่มีการคุ้มกันอย่างแน่นหนา
ขณะที่มีการต่อสู้กันอย่างดุเดือดที่ลานสนามหญ้าหน้าทำเนียบขาว ไมค์ แบนนิ่ง (เจอราร์ด บัตเลอร์) อดีตเจ้าหน้าที่หน่วยรักษาความปลอดภัย
ก็กระโจนเข้าร่วมวงด้วย ก่อนที่เขาจะพบว่าเขาเป็นสมาชิกหน่วยรักษาความปลอดภัยประธานาธิบดีคนสุดท้าย ที่ยังมีชีวิตอยู่ในอาคารที่ถูกยึดหลังนี้
  แบนนิ่งใช้การฝึกฝนอย่างหนักและความรู้อย่างละเอียดเกี่ยวกับที่พำนักของ ประธานาธิบดีในการ
เป็นหูเป็นตาให้กับอัลลัน ทรัมบุล (มอร์แกน ฟรีแมน)
ผู้รักษาการแทนประธานาธิบดีและที่ปรึกษาของเขา เมื่อผู้บุกรุกเริ่มสังหารตัวประกันและขู่ที่จะฆ่าตัวประกันเพิ่มเติมหากไม่ มีการทำตามข้อเรียกร้องที่สุดโต่ง
ของพวกเขา แบนนิ่งก็พยายามอย่างสุดความสามารถที่จะหาตัวลูกชายของประธานาธิบดีที่ซ่อนตัวอยู่ที่ไหนซักแห่งในอาคารแห่งนี้
และช่วยชีวิตประธานาธิบดีเอาไว้ให้ได้ก่อนที่ผู้ก่อการร้ายจะใช้แผนการขั้นสุดท้ายที่น่าสะพรึงกลัวของพวกเขา เมื่อจำนวนศพมากขึ้น
และเวลาเหลือน้อยลงเรื่อยๆ สิ่งที่ปรากฏชัดคือแบนนิงเป็นความหวังเพียงหนึ่งเดียวที่จะทำให้อเมริการอดพ้นจากหายนะได้!!!

Format                                   : Matroska
Format version                           : Version 2
File size                                : 3.17 GiB
Duration                                 : 1h 59mn
Overall bit rate                         : 3 811 Kbps
Encoded date                             : UTC 2013-06-27 10:42:25
Writing application                      : mkvmerge v5.8.0 ( No Sleep / Pillow ) built on Sep  2 2012 15:37:04
Writing library                          : libebml v1.2.3 + libmatroska v1.3.0


Video
ID                                       : 1
Format                                   : AVC
Format/Info                              : Advanced Video Codec
Format profile                           : Main@L3.1
Format settings, CABAC                   : Yes
Format settings, ReFrames                : 1 frame
Codec ID                                 : V_MPEG4/ISO/AVC
Duration                                 : 1h 59mn
Bit rate                                 : 3 200 Kbps
Width                                    : 1 280 pixels
Height                                   : 544 pixels
Display aspect ratio                     : 2.35:1
Frame rate mode                          : Constant
Frame rate                               : 23.962 fps
Color space                              : YUV
Chroma subsampling                       : 4:2:0
Bit depth                                : 8 bits
Scan type                                : Progressive
Bits/(Pixel*Frame)                       : 0.192
Stream size                              : 2.58 GiB (81%)
Writing library                          : x264 core 120
Encoding settings                        : cabac=1 / ref=1 / deblock=1:0:0 / analyse=0x1:0x111 / me=hex / subme=0 / psy=1 / psy_rd=1.00:0.00 / mixed_ref=0 / me_range=16 / chroma_me=1 / trellis=0 / 8x8dct=0 / cqm=0 / deadzone=21,11 / fast_pskip=1 / chroma_qp_offset=0 / threads=12 / sliced_threads=0 / nr=0 / decimate=1 / interlaced=0 / bluray_compat=0 / constrained_intra=0 / bframes=0 / weightp=1 / keyint=240 / keyint_min=24 / scenecut=40 / intra_refresh=0 / rc_lookahead=10 / rc=abr / mbtree=1 / bitrate=3200 / ratetol=1.0 / qcomp=0.60 / qpmin=3 / qpmax=69 / qpstep=4 / ip_ratio=1.40 / aq=1:1.00

Language                                 : English
Default                                  : Yes
Forced                                   : No
Color primaries                          : BT.709
Transfer characteristics                 : BT.709
Matrix coefficients                      : BT.709


Audio #1
ID                                       : 2
Format                                   : AC-3
Format/Info                              : Audio Coding 3
Mode extension                           : CM (complete main)
Format settings, Endianness              : Big
Codec ID                                 : A_AC3
Duration                                 : 1h 59mn
Bit rate mode                            : Constant
Bit rate                                 : 448 Kbps
Channel(s)                               : 6 channels
Channel positions                        : Front: L C R, Side: L R, LFE
Sampling rate                            : 48.0 KHz
Bit depth                                : 16 bits
Compression mode                         : Lossy
Stream size                              : 382 MiB (12%)
Title                                    : Olympus Has Fallen-4
Language                                 : English
Default                                  : No
Forced                                   : No


Audio #2
ID                                       : 3
Format                                   : AC-3
Format/Info                              : Audio Coding 3
Mode extension                           : CM (complete main)
Format settings, Endianness              : Big
Codec ID                                 : A_AC3
Duration                                 : 1h 59mn
Bit rate mode                            : Constant
Bit rate                                 : 192 Kbps
Channel(s)                               : 2 channels
Channel positions                        : Front: L R
Sampling rate                            : 48.0 KHz
Bit depth                                : 16 bits
Compression mode                         : Lossy
Stream size                              : 164 MiB (5%)
Title                                    : Olympus ThaiRong 2.0 by nongZEZA~
Language                                 : Thai
Default                                  : Yes
Forced                                   : No

Text
ID                                       : 4
Format                                   : VobSub
Codec ID                                 : S_VOBSUB
Codec ID/Info                            : The same subtitle format used on DVDs
Title                                    : English 1080p
Language                                 : English
Default                                  : Yes
Forced                                   : No







 
โหลดหนัง Olympus Has Fallen (2013) ฝ่าวิกฤติ วินาศกรรมทำเนียบขาว One2up Part 1 คลิก
โหลดหนัง Olympus Has Fallen (2013) ฝ่าวิกฤติ วินาศกรรมทำเนียบขาว One2up Part 2 คลิก

-- Winrar ใส่ Recovery Record 5% ทุกไฟล์ครับ 

ฝากเพจด้วยนะครับ มีให้โหลดอีกเยอะ 
คลิกเลย

ไม่มีความคิดเห็น:

แสดงความคิดเห็น

แสดงความคิดเห็น